加载中…
个人资料
似影随身2019
似影随身2019
  • 博客等级:
  • 博客积分:0
  • 博客访问:413,287
  • 关注人气:96
  • 获赠金笔:0支
  • 赠出金笔:0支
  • 荣誉徽章:
相关博文
推荐博文
谁看过这篇博文
加载中…
正文 字体大小:

郝云《郝云北京》FLAC整轨

(2019-11-19 19:54:27)
标签:

经典

无损

分类: 华语
郝云《郝云北京》FLAC整轨


TRACK 01 AUDIO

 TITLE "北京 北京"

 INDEX 01 00:00:00

 REM REPLAYGAIN_TRACK_GAIN -9.24 dB

 REM REPLAYGAIN_TRACK_PEAK 0.977783

TRACK 02 AUDIO

 TITLE "这个城市"

 INDEX 01 03:35:23

 REM REPLAYGAIN_TRACK_GAIN -9.24 dB

 REM REPLAYGAIN_TRACK_PEAK 0.977783

TRACK 03 AUDIO

 TITLE "太平盛世之小西天"

 INDEX 01 07:44:00

 REM REPLAYGAIN_TRACK_GAIN -9.24 dB

 REM REPLAYGAIN_TRACK_PEAK 0.977783

TRACK 04 AUDIO

 TITLE '发现目标——行动'

 INDEX 01 13:14:30

 REM REPLAYGAIN_TRACK_GAIN -9.24 dB

 REM REPLAYGAIN_TRACK_PEAK 0.977783

TRACK 05 AUDIO

 TITLE "让我再摸一摸你的耳朵"

 INDEX 01 17:08:69

 REM REPLAYGAIN_TRACK_GAIN -9.24 dB

 REM REPLAYGAIN_TRACK_PEAK 0.977783

TRACK 06 AUDIO

 TITLE "鞋"

 INDEX 01 21:57:03

 REM REPLAYGAIN_TRACK_GAIN -9.24 dB

 REM REPLAYGAIN_TRACK_PEAK 0.977783

TRACK 07 AUDIO

 TITLE "海风"

 INDEX 01 27:21:38

 REM REPLAYGAIN_TRACK_GAIN -9.24 dB

 REM REPLAYGAIN_TRACK_PEAK 0.977783

TRACK 08 AUDIO

 TITLE "生日不快乐"

 INDEX 01 31:26:09

 REM REPLAYGAIN_TRACK_GAIN -9.24 dB

 REM REPLAYGAIN_TRACK_PEAK 0.977783

TRACK 09 AUDIO

 TITLE "串儿"

 INDEX 01 36:47:41

 REM REPLAYGAIN_TRACK_GAIN -9.24 dB

 REM REPLAYGAIN_TRACK_PEAK 0.977783

TRACK 10 AUDIO

 TITLE "我要去泰国"

 INDEX 01 38:49:13

 REM REPLAYGAIN_TRACK_GAIN -9.24 dB

 REM REPLAYGAIN_TRACK_PEAK 0.977783

TRACK 11 AUDIO

 TITLE "祭"

 INDEX 01 42:29:20

 REM REPLAYGAIN_TRACK_GAIN -9.24 dB

 REM REPLAYGAIN_TRACK_PEAK 0.977783


郝云《郝云北京》FLAC整轨
下载地址:
郝云《郝云北京》FLAC整轨.rar:https://545c.com/file/18559186-408103282

0

阅读 评论 收藏 转载 喜欢 打印举报/Report
  • 评论加载中,请稍候...
发评论

    发评论

    以上网友发言只代表其个人观点,不代表新浪网的观点或立场。

      

    新浪BLOG意见反馈留言板 电话:4000520066 提示音后按1键(按当地市话标准计费) 欢迎批评指正

    新浪简介 | About Sina | 广告服务 | 联系我们 | 招聘信息 | 网站律师 | SINA English | 会员注册 | 产品答疑

    新浪公司 版权所有